phoenixrisingmusic
» » Ken Colyer's Jazzmen - The Decca Years Volume 3 - Club Session With Colyer

Ken Colyer's Jazzmen - The Decca Years Volume 3 - Club Session With Colyer album mp3

Ken Colyer's Jazzmen - The Decca Years Volume 3 - Club Session With Colyer album mp3
Title:
The Decca Years Volume 3 - Club Session With Colyer
Style:
Dixieland
Released:
FLAC album size:
1309 mb
Other formats:
MP3 DXD DMF MP3 WAV AC3 MP4
Genre:
Rating:
4.9 ✪

Recorded at The Railway Hotel, Hampstead, London 04/10/1956 and 16/11/1956. Originally issued on Decca LK4178. Matrix, Runout (Side A): LA 5006 A1.

Ken Colyer's Jazzmen. Decca F10241 "Goin' Home", "Isle of Capri" (1954). Decca F10332 "La Harpe Street Blues", "Too Busy" (1954). The Crane River Jazz Band. Club Session with Colyer (Decca, 1956). Studio 51 Club Sessions with Colyer (Upbeat, 1972). Out of Nowhere(KC, 1965). Back to the Delta (Decca, 1954). This is Jazz (Columbia, 1959). Sensation – The Decca Years (Lake, 1955–59). The Classic Years 1957) Upbeat.

The Decca Years Volume 3 - Club Session With ColyerKen Colyer's Jazzmen. Ken Colyer's JazzmenKen Colyer's Jazzmen. The National Jazz Federation Presents: Traditional Jazz At The Royal Festival Hall, LondonKen Colyer's Jazzmen. Ken Colyer ConcertKen Colyer's Jazzmen. Traditional Jazz With Ken Colyer's JazzmenKen Colyer's Jazzmen. -And Back To New Orleans" Number 2Ken Colyer's Jazzmen.

Ken Colyer's Jazzmen: все альбомы, включая Watch That Dirty Tone of Yours. There Are Ladies Present !, Ragtime Revisited, 1960s Jazz Lazy River And more и другие. A Jazz Club Session With Ken Colyer's Jazzmen. Ken Colyer's Jazzmen. A Boston Concert With Ken Colyer's Jazzmen. The Classic Years Volume 3.

Download Ken Colyers Jazzmen - The Classic Years Volume 1-3 (2007) or any other file from Music category. Jazz FLAC ( tracks . ue,log) 03:40:10 . 4 GB (+5%rec -+ Volume 1. 01. Yes Lord I'm Crippled (4:17) 02. Bogalusa Strut (4:45) 03. Over the Rainbow (4:59) 04. Dauphine Street Blues (7:43) 05. Clarinet Marmalade (5:10) 06.

00:04:17) Ken Colyer's Jazzmen - Walking with the King. 10. (00:02:24) Ken Colyer's Jazzmen - Home Sweet Home/Auf Wiederseh'n Sweetheart. Ken Colyer's Jazzmen - Club Session with Colyer (1956, 2000, Lake)/ - . 0. Ken Colyer's Jazzmen - Club Session with Colyer (1956, 2000, Lake)/08 - The Old Rugged Cross. Ken Colyer's Jazzmen - Club Session with Colyer (1956, 2000, Lake)/Ken Colyer's Jazzmen - Club Session with Colyer. Ken Colyer's Jazzmen - Club Session with Colyer (1956, 2000, Lake)/Club Session with Colyer.

Fence" PERFORMER "Ken Colyer's Jazzmen" INDEX 01 00:00:00 FILE "08 - The Old Rugged Cross. wav" WAVE TRACK 08 AUDIO TITLE "The Old Rugged Cross" PERFORMER "Ken Colyer's Jazzmen" INDEX 01 00:00:00 FILE "09 - Walking with the King. wav" WAVE TRACK 09 AUDIO TITLE "Walking with the King" PERFORMER "Ken Colyer's Jazzmen" INDEX 01 00:00:00.

Songs from Club Session with Colyer by Ken Colyer's Jazz Men, Ken Colyer's Jazzmen. Free download and listen Club Session with Colyer.

Ken Colyer's Jazzmen скачать mp3 в хорошем качестве, либо слушайте песню Ken Colyer's Jazzmen - Cataract Rag, Ken Colyer's Jazzmen - Cataract Rag, Ken Colyer's Jazzmen - Tuxedo Rag, Ken Colyer's Jazzmen - Heebie Jeebies, Ken Colyer s Jazzmen - Uptown Bumps, а также рингтоны на звонок и все новые треки.

Tracklist: 01. Uptown Bumps (Bolden) 02. Blame It on the Blues (Dorsey) 03. Creole Song (Ory) 04. Chrysanthemum Rag (Joplin) 05. Snag It (Oliver) 06. The Thriller Rag (Aufderheide) 07. Black Cat on the Fence (Long) 08. The Old Rugged Cross (Bernard) 09. Walking with the King (Trad. Home Sweet Home (Bishop)/Auf Wiederseh'n Sweetheart (Storch).

Tracklist Hide Credits

A1 Uptown Jumps
Written-By – Buddy Bolden
A2 Blame It On The Blues
Written-By – Tommy Dorsey
A3 Creole Song
Written-By – Kid Ory
A4 Chrysanthemum Rag
Written-By – Scott Joplin
A5 Snag It
Written-By – King Oliver
B1 Thriller Rag
Written-By – Traditional
B2 Black Cat On The Fence
Written By – Long
B3 The Old Rugged Cross
Written By – Bernard
B4 Walking With The King
Written By – Bishop
B5 Home Sweet Home
Written-By – Traditional
B6 Auf Weiderseh'n Sweetheart
Written-By – Eberhard Storch

Companies, etc.

  • Licensed From – Decca

Credits

  • Banjo – John Bastable
  • Bass – Ron Ward
  • Clarinet – Ian Wheeler
  • Drums – Colin Bowden
  • Sleeve Notes – Paul Adams
  • Trombone – Mac Duncan
  • Trumpet – Ken Colyer
  • Vocals – Ken Colyer

Notes

Recorded at The Railway Hotel, Hampstead, London 04/10/1956 and 16/11/1956

Originally issued on Decca LK4178

Barcode and Other Identifiers

  • Matrix / Runout (Side A): LA 5006 A1
  • Matrix / Runout (Side B): LA 5006 B1