phoenixrisingmusic
» » Henry "Red" Allen And His Orchestra - 1937 - 1941

Henry "Red" Allen And His Orchestra - 1937 - 1941 album mp3

Henry "Red" Allen And His Orchestra - 1937 - 1941 album mp3
Title:
1937 - 1941
Performer:
Henry "Red" Allen And His Orchestra
Style:
Dixieland, Swing
Released:
Country:
FLAC album size:
1554 mb
Other formats:
VQF FLAC DTS AIFF WMA AA DMF
Genre:
Rating:
4.3 ✪

The Chronological Classics: Henry "Red" Allen and His Orchestra 1937-1941. Henry "Red" Allen and His Orchestra. You'll Never Got to Heaven (If You Break My Heart). 2. Sometimes I'm Happy, Part 2. 03:12. 3. Down in Jungle Town. 4. The Miller's Daughter, Marianne. 5.

Henry ''Red'' Allen - 1935-1936 {CC, 575}. 04. Take Me Back To My Boots And Saddle. 07. I'll Bet You Tell That To All The Girls. 21. Darling, Not Without Yo. lac. 17. When Did You Leave Heaven.

The final of the five Classics CDs that document the early recordings of trumpeter Henry "Red" Allen covers music from three very different bands. Allen is first heard singing and playing trumpet on eight pop tunes he uplifts with a recording group in 1937 that features altoist Tab Smith. Allen also plays four Dixieland standards with a hot septet in 1940 that includes trombonist Benny Morton, clarinetist Edmond Hall and pianist Lil Armstrong.

(Big Band, Swing) Claude Hopkins And His Orchestra - The Chronological Classics, Complete, 3 Albums (1932-1940) - 1993, FLAC (tracks+. Swing) Bill Coleman - 1952-1953 {The Chronological Classics, 1381} - 2005, FLAC (tracks+. flac" WAVE INDEX 01 00:00:00 TRACK 04 AUDIO TITLE "Swing Out" PERFORMER "Henry ''Red'' Allen And His Orchestra" INDEX 00 03:33:50 FILE "04. Swing Ou. lac" WAVE INDEX 01 00:00:00 TRACK 05 AUDIO TITLE "Make A Country Bird Fly Wild" PERFORMER "Henry ''Red'' Allen And His Orchestra" INDEX 00 03:15:27 FILE "05. Make A Country Bird Fly Wild. flac" WAVE INDEX 01 00:00:00 TRACK 06 AUDIO TITLE "Funny Feathers Blues" PERFORMER "Henry ''Red'' Allen And.

Till the Clock Strikes Three. Henry 'Red' Allen and His Orchestra. The Merry-Go-Round Broke Down. You'll Never Go to Heaven (If You Break My Heart). 6. Have You Ever Been in Heaven?.

Album: Henry 'Red' Allen: 1937-1941. Download Henry 'Red' Allen & His Orchestra - Ol' Man River. Henry 'Red' Allen: 1937-1941: Best 2 songs. Henry 'Red' Allen & His Orchestra - Canal Street Blues 03:08. Henry 'Red' Allen & His Orchestra - I Owe You 02:41. Album: Henry 'Red' Allen: 1937-1941. Henry 'Red' Allen & His Orchestra: best 2 tracks. Henry 'Red' Allen & His Orchestra - Canal Street Blues Henry 'Red' Allen: 1937-1941, 2018 03:08

Henry 'Red' Allen: 1937-1941. Henry 'Red' Allen: 1937-1941.

Henry Allen Orchestra songs download, free online mp3 listen. Henry 'Red' Allen & His Orchestra - Sometimes I'm Happy, Pt. Henry 'Red' Allen & His Orchestra - Jack the Bellboy. Henry Red Allen And His Orchestra - Nothing's Blue But the Sky. album: Every Minute of the Hour. Henry Red Allen And His Orchestra - Chloe (Song of the Swamp). Henry Red Allen And His Orchestra - I Wished On the Moon. album: Believe It, Beloved. Henry Red Allen And His Orchestra - I'll Bet You Tell That to All the Girls. album: The Touch of Your Lips. Henry Red Allen And His Orchestra - Meet Me in the Moonlight. album: Let's Put Our Heads Together. Henry Red Allen And His Orchestra, Ирвинг Берлин - This Year's Kisses. album: Goodnight, My Lucky Day.

Songs from Henry 'Red' Allen: 1936-1937 by Henry Allen & His Orchestra. Free download and listen Henry 'Red' Allen: 1936-1937. Henry Allen & His Orchestra.

Tracklist

Till The Clock Strikes Three 2:27
The Merry-Go-Round Broke Down 2:47
You'll Never Go To Heaven (If You Break My Heart) 2:52
The Miller's Daughter, Marianne 2:47
I Owe You 2:38
Have You Ever Been In Heaven? 2:24
(Is It) Love Or Infatuation? 2:35
Can I Forget You? 2:41
Down In Jungle Town 2:49
Canal Street Blues 3:06
King Porter Stomp 2:32
Shim Me Sha Wobble 3:08
K. K. Boogie 3:05
Sometimes I'm Happy Part 1 3:15
Sometimes I'm Happy Part 2 3:10
Ol' Man River 3:06
A Sheridan "Square" 3:19
Siesta At The Fiesta 3:10
Indiana 3:13
Jack The Bellboy 3:06

Versions

Category Artist Title (Format) Label Category Country Year
CLASSICS 628 Henry "Red" Allen And His Orchestra 1937 - 1941 ‎(CD, Comp) Classics CLASSICS 628 Europe 1992